Alien – Covenant (2017) Dual Audio Hindi 720p

May 15, 2019

Alien – Covenant (2017) Dual Audio Hindi 720p.mp4

IMDB Link

General
Complete name : Alien – Covenant (2017) Dual Audio Hindi.mp4
Format : MPEG-4
Format profile : Base Media / Version 2
Codec ID : mp42 (mp42)
File size : 731 MiB
Duration : 2 h 25 min
Overall bit rate mode : Constant
Overall bit rate : 703 kb/s
Codirector : codirector
Production studio : studio

Video
Format : MPEG-4 Visual
Format settings, BVOP : Yes
Format settings, QPel : No
Format settings, GMC : No warppoints
Format settings, Matrix : Default (H.263)
Codec ID : 20
Duration : 2 h 25 min
Bit rate mode : Constant
Bit rate : 512 kb/s
Width : 720 pixels
Height : 300 pixels
Display aspect ratio : 2.40:1
Frame rate mode : Constant
Frame rate : 30.000 FPS
Color space : YUV
Bit depth : 8 bits
Scan type : Progressive
Compression mode : Lossy
Bits/(Pixel*Frame) : 0.079
Stream size : 532 MiB (73%)

Audio
Format : AAC
Format/Info : Advanced Audio Codec
Format profile : LC
Codec ID : 40
Duration : 2 h 25 min
Bit rate mode : Constant
Bit rate : 186 kb/s
Channel(s) : 2 channels
Channel positions : Front: L R
Sampling rate : 44.1 kHz
Frame rate : 43.066 FPS (1024 SPF)
Compression mode : Lossy
Stream size : 193 MiB (26%)
Title : Stereo
Language : English








indishare Link

TheFilesLocker Link

ClicknupLoad Link

BDupload Link

UpPom Link

UploadBuzz Link

Comments

You may also like