Humanity’s End (2009) Hindi Dubbed Movie 720p

March 30, 2019

<h1 style=”text-align: center;”><span style=”color: #ffff00;”><strong>Humanity’s End (2009) Hindi Dubbed Movie 720p.mkv</strong></span></h1>
<p style=”text-align: center;”><img class=”aligncenter” src=”https://i.ibb.co/2SsJR54/Humanitys-End-hires.jpg” height=”550″ /></p>

<h1 style=”text-align: center;”><span style=”color: #00ff00;”><a style=”color: #00ff00;” href=”https://www.imdb.com/tt1249453/”><strong>IMDB Link</strong></a></span></h1>
<p style=”text-align: center;”><img class=”aligncenter” src=”https://i.ibb.co/1rwSwG5/giphy-1.gif” width=”154″ height=”43″ /></p>
<p style=”text-align: center;”>General
Complete name : Humanity’s End (2009) Hindi Dubbed.mp4
Format : MPEG-4
Format profile : Base Media / Version 2
Codec ID : mp42 (mp42)
File size : 457 MiB
Duration : 1 h 50 min
Overall bit rate mode : Constant
Overall bit rate : 580 kb/s
Codirector : codirector
Production studio : studio</p>
<p style=”text-align: center;”>Video
Format : MPEG-4 Visual
Format settings, BVOP : Yes
Format settings, QPel : No
Format settings, GMC : No warppoints
Format settings, Matrix : Default (H.263)
Codec ID : 20
Duration : 1 h 50 min
Bit rate mode : Constant
Bit rate : 383 kb/s
Width : 400 pixels
Height : 250 pixels
Display aspect ratio : 16:10
Frame rate mode : Constant
Frame rate : 25.000 FPS
Color space : YUV
Bit depth : 8 bits
Scan type : Progressive
Compression mode : Lossy
Bits/(Pixel*Frame) : 0.153
Stream size : 302 MiB (66%)</p>
<p style=”text-align: center;”>Audio
Format : AAC
Format/Info : Advanced Audio Codec
Format profile : LC
Codec ID : 40
Duration : 1 h 50 min
Bit rate mode : Constant
Bit rate : 192 kb/s
Channel(s) : 2 channels
Channel positions : Front: L R
Sampling rate : 44.1 kHz
Frame rate : 43.066 FPS (1024 SPF)
Compression mode : Lossy
Stream size : 151 MiB (33%)
Title : Stereo
Language : English
Default : Yes</p>
<p style=”text-align: center;”><img class=”aligncenter” src=”https://i.ibb.co/yRNYm3f/skin.gif” width=”220″ height=”40″ /></p>
<p style=”text-align: center;”><img class=”aligncenter” src=”https://i.ibb.co/fMWS59j/1.jpg” width=”495″ height=”330″ />
<img class=”aligncenter” src=”https://i.ibb.co/FYFVkbZ/2.jpg” width=”501″ height=”334″ />
<img class=”aligncenter” src=”https://i.ibb.co/KLZpVWF/3.jpg” width=”491″ height=”327″ />
<img class=”aligncenter” src=”https://i.ibb.co/Y3bKSqq/4.jpg” width=”498″ height=”332″ />
<img class=”aligncenter” src=”https://i.ibb.co/8Yk7pHr/5.jpg” width=”498″ height=”332″ />
<img class=”aligncenter” src=”https://i.ibb.co/q5bnLPY/6.jpg” width=”502″ height=”334″ />
<img class=”aligncenter” src=”https://i.ibb.co/wr17s7j/7.jpg” width=”504″ height=”336″ />
<img class=”aligncenter” src=”https://i.ibb.co/C5WgsJJ/8.jpg” width=”506″ height=”337″ /></p>
<p style=”text-align: center;”><img class=”aligncenter” src=”https://i.ibb.co/gdTVWZD/d5c5cd25be7c89bc3da9fe7ffa702564.gif” width=”252″ height=”42″ /></p>

<h2 style=”text-align: center;”><span style=”color: #00ff00;”><a style=”color: #00ff00;” href=”https://www.indishare.me/yil5oon7rjhz”><strong>indishare Link</strong></a></span></h2>
<h2 style=”text-align: center;”><span style=”color: #00ff00;”><a style=”color: #00ff00;” href=”http://thefileslocker.com/m0p86yrr9gb9.html”><strong>TheFilesLocker Link</strong></a></span></h2>
<h2 style=”text-align: center;”><span style=”color: #00ff00;”><a style=”color: #00ff00;” href=”https://megaup.net/cehC/Humanity’s_End_(2009)_Hindi_Dubbed.mp4″><strong>MegaUp Link</strong></a></span></h2>
<h2 style=”text-align: center;”><span style=”color: #00ff00;”><a style=”color: #00ff00;” href=”https://openload.co/f/At-svXencew/Humanity%E2%80%99s_End_%282009%29_Hindi_Dubbed.mp4″><strong>OpenLoad Link</strong></a></span></h2>
<h2 style=”text-align: center;”><span style=”color: #00ff00;”><a style=”color: #00ff00;” href=”https://userscloud.com/div39nouumhp”><strong>UserscLoud Link</strong></a></span></h2>
<h2 style=”text-align: center;”><span style=”color: #00ff00;”><a style=”color: #00ff00;” href=”https://clicknupload.org/nur8sfgmv827″><strong>ClicknupLoad Link</strong></a></span></h2>
<h2 style=”text-align: center;”><span style=”color: #00ff00;”><a style=”color: #00ff00;” href=”https://bdupload.info/52bw9h99aprc”><strong>BDupload Link</strong></a></span></h2>
<h2 style=”text-align: center;”><span style=”color: #00ff00;”><a style=”color: #00ff00;” href=”http://uppom.live/48hx29ud2cr7/Humanity_E2??s_End_(2009)_Hindi_Dubbed.mp4.html”><strong>UpPom Link</strong></a></span></h2>
<h2 style=”text-align: center;”><span style=”color: #00ff00;”><a style=”color: #00ff00;” href=”https://uploadbuzz.org/lqfldjgnv9gk”><strong>UploadBuzz Link</strong></a></span></h2>
<p style=”text-align: center;”><img class=”aligncenter” src=”https://inteha2018.files.wordpress.com/2018/05/1gb.png” width=”183″ height=”183″ /></p>
<p style=”text-align: center;”><img class=”aligncenter” src=”https://i.ibb.co/f9L2rpJ/giphy.gif” /></p>

Comments

You may also like