Kabir Singh (2019) 720p Hindi DVDScr x264 AAC 918 MiB

June 22, 2019

Kabir Singh (2019) 720p Hindi DVDScr x264 AAC 918 MiB

IMDB Link

General
Complete name : Kabir Singh (2019) 720p Hindi DVDScr x264 AAC 918 MiB.mp4
Format : MPEG-4
Format profile : Base Media
Codec ID : isom (isom/iso2/avc1/mp41)
File size : 918 MiB
Duration : 3 h 18 min
Overall bit rate : 646 kb/s
Writing application : Lavf57.56.101

Video
Format : AVC
Format/Info : Advanced Video Codec
Format profile : [email protected]
Format settings, CABAC : Yes
Format settings, RefFrames : 4 frames
Codec ID : avc1
Codec ID/Info : Advanced Video Coding
Duration : 3 h 18 min
Bit rate : 512 kb/s
Width : 1 280 pixels
Height : 720 pixels
Display aspect ratio : 16:9
Frame rate mode : Constant
Frame rate : 25.000 FPS
Color space : YUV
Chroma subsampling : 4:2:0
Bit depth : 8 bits
Scan type : Progressive
Bits/(Pixel*Frame) : 0.022
Stream size : 727 MiB (79%)

Audio
Format : AAC
Format/Info : Advanced Audio Codec
Format profile : LC
Codec ID : 40
Duration : 3 h 18 min
Duration_LastFrame : -19 ms
Bit rate mode : Constant
Bit rate : 129 kb/s
Channel(s) : 2 channels
Channel positions : Front: L R
Sampling rate : 48.0 kHz
Frame rate : 46.875 FPS (1024 SPF)
Compression mode : Lossy
Stream size : 183 MiB (20%)
Language : English
Default : Yes








Downgload Link

The post Kabir Singh (2019) 720p Hindi DVDScr x264 AAC 918 MiB appeared first on GaanBD24.website || GaanBD24.pw,GaanBD24.Website, 7starhd,khatrimaza,downloadhub,9xmovies,khatrimaza,bdmusic23,bdmusic23.com,bdmusic23.pro,bdmusic23.info,bdmusic23.mobi,bdmusic,bd music.

Source:

Comments

You may also like