Kuch Pal Pyar Ke (2018) HOT HDRip 720p

May 3, 2019

Kuch Pal Pyar Ke (2018) HOT HDRip 720p.mp4

IMDB Link

General
Complete name : Kuch Pal Pyar Ke (2018) HOT 720p HDRip .mp4
Format : MPEG-4
Format profile : Base Media
Codec ID : isom (isom/iso2/avc1/mp42)
File size : 591 MiB
Duration : 2 h 8 min
Overall bit rate mode : Variable
Overall bit rate : 643 kb/s

Video
Format : AVC
Format/Info : Advanced Video Codec
Format profile : [email protected]
Format settings, CABAC : Yes
Format settings, RefFrames : 4 frames
Codec ID : avc1
Codec ID/Info : Advanced Video Coding
Duration : 2 h 8 min
Bit rate : 512 kb/s
Width : 640 pixels
Height : 384 pixels
Display aspect ratio : 5:3
Frame rate mode : Constant
Frame rate : 25.000 FPS
Color space : YUV
Chroma subsampling : 4:2:0
Bit depth : 8 bits
Scan type : Progressive
Bits/(Pixel*Frame) : 0.083
Stream size : 470 MiB (80%)
Writing library : x264 core 132

Audio
Format : AAC
Format/Info : Advanced Audio Codec
Format profile : LC
Codec ID : 40
Duration : 2 h 8 min
Bit rate mode : Variable
Bit rate : 124 kb/s
Maximum bit rate : 192 kb/s
Channel(s) : 2 channels
Channel positions : Front: L R
Sampling rate : 44.1 kHz
Frame rate : 43.066 FPS (1024 SPF)
Compression mode : Lossy
Stream size : 114 MiB (19%)
Default : Yes








indishare Link

TheFilesLocker Link

MegaUp Link

UserscLoud Link

ClicknupLoad Link

BDupload Link

UpPom Link

UploadBuzz Link

The post Kuch Pal Pyar Ke (2018) HOT HDRip 720p appeared first on GaanBD24.pw | 7starhd,khatrimaza,downloadhub,9xmovies,khatrimaza,bdmusic23,bdmusic23.com,bdmusic23.pro,bdmusic23.info,bdmusic23.mobi,bdmusic,bd music.

Source:

Comments

You may also like