Personal Shopper 18+ Hollywood Hindi Dubbed Movie 720p

April 8, 2019

<h1 style=”text-align: center”><span style=”color: #ffff00″><strong> Personal Shopper 18+ Hollywood Hindi Dubbed Movie 720p.mkv</strong></span></h1>
<p style=”text-align: center”><img class=”aligncenter” src=”https://i.ibb.co/SnDNKYV/b7042665281c3d44c637bbad8447b9f6.jpg” height=”550″ /></p>

<h1 style=”text-align: center”><span style=”color: #00ff00″><a style=”color: #00ff00″ href=”https://www.imdb.com/tt4714782/”><strong>IMDB Link</strong></a></span></h1>
<p style=”text-align: center”><img class=”aligncenter” src=”https://i.ibb.co/1rwSwG5/giphy-1.gif” width=”154″ height=”43″ /></p>
<p style=”text-align: center”>General
Complete name : Personal Shopper 18+ Hollywood Hindi Dubbed Movie .mp4
Format : MPEG-4
Format profile : Base Media
Codec ID : isom (isom/iso2/avc1/mp42)
File size : 651 MiB
Duration : 2 h 9 min
Overall bit rate mode : Variable
Overall bit rate : 705 kb/s
Writing application : Lavf55.33.100</p>
<p style=”text-align: center”>Video
Format : AVC
Format/Info : Advanced Video Codec
Format profile : [email protected]
Format settings, CABAC : Yes
Format settings, RefFrames : 4 frames
Codec ID : avc1
Codec ID/Info : Advanced Video Coding
Duration : 2 h 9 min
Bit rate : 512 kb/s
Width : 640 pixels
Height : 384 pixels
Display aspect ratio : 5:3
Frame rate mode : Constant
Frame rate : 25.000 FPS
Color space : YUV
Chroma subsampling : 4:2:0
Bit depth : 8 bits
Scan type : Progressive
Bits/(Pixel*Frame) : 0.083
Stream size : 472 MiB (72%)</p>
<p style=”text-align: center”>Audio
Format : AAC
Format/Info : Advanced Audio Codec
Format profile : LC
Codec ID : 40
Duration : 2 h 9 min
Bit rate mode : Variable
Bit rate : 187 kb/s
Maximum bit rate : 192 kb/s
Channel(s) : 2 channels
Channel positions : Front: L R
Sampling rate : 44.1 kHz
Frame rate : 43.066 FPS (1024 SPF)
Compression mode : Lossy
Stream size : 173 MiB (27%)
Default : Yes
Alternate group : 1</p>
<p style=”text-align: center”><img class=”aligncenter” src=”https://i.ibb.co/yRNYm3f/skin.gif” width=”220″ height=”40″ /></p>
<p style=”text-align: center”><img class=”aligncenter” src=”https://i.ibb.co/5FSJpf7/1.jpg” width=”491″ height=”327″ />
<img class=”aligncenter” src=”https://i.ibb.co/6DpG1tq/2.jpg” width=”495″ height=”330″ />
<img class=”aligncenter” src=”https://i.ibb.co/N7nxCYz/3.jpg” width=”501″ height=”334″ />
<img class=”aligncenter” src=”https://i.ibb.co/f2bsmNw/4.jpg” width=”498″ height=”332″ />
<img class=”aligncenter” src=”https://i.ibb.co/dM0xFBm/5.jpg” width=”498″ height=”332″ />
<img class=”aligncenter” src=”https://i.ibb.co/fVW6yQS/6.jpg” width=”502″ height=”334″ />
<img class=”aligncenter” src=”https://i.ibb.co/xmB8BkZ/7.jpg” width=”504″ height=”336″ />
<img class=”aligncenter” src=”https://i.ibb.co/tZQttjQ/8.jpg” width=”506″ height=”337″ /></p>
<p style=”text-align: center”><img class=”aligncenter” src=”https://i.ibb.co/gdTVWZD/d5c5cd25be7c89bc3da9fe7ffa702564.gif” width=”252″ height=”42″ /></p>

<h2 style=”text-align: center”><span style=”color: #00ff00″><a style=”color: #00ff00″ href=”https://www.indishare.me/dm43ic9do2dz”><strong>indishare Link</strong></a></span></h2>
<h2 style=”text-align: center”><span style=”color: #00ff00″><a style=”color: #00ff00″ href=”https://thefileslocker.com/ogc2nhgues86.html”><strong>TheFilesLocker Link</strong></a></span></h2>
<h2 style=”text-align: center”><span style=”color: #00ff00″><a style=”color: #00ff00″ href=”https://megaup.net/gz6x/Personal_Shopper_(2016)_Hollywood_Hindi_Dubbed_Movie__(2).mp4″><strong>MegaUp Link</strong></a></span></h2>
<h2 style=”text-align: center”><span style=”color: #00ff00″><a style=”color: #00ff00″ href=”https://userscloud.com/al2qpnkr0sk9″><strong>UserscLoud Link</strong></a></span></h2>
<h2 style=”text-align: center”><span style=”color: #00ff00″><a style=”color: #00ff00″ href=”https://clicknupload.org/izmlf0lixbrr”><strong>ClicknupLoad Link</strong></a></span></h2>
<h2 style=”text-align: center”><span style=”color: #00ff00″><a style=”color: #00ff00″ href=”https://bdupload.info/sdtle6h9gggn”><strong>BDupload Link</strong></a></span></h2>
<h2 style=”text-align: center”><span style=”color: #00ff00″><a style=”color: #00ff00″ href=”http://uppom.live/zote6gd0e6qs/Personal_Shopper_(2016)_Hollywood_Hindi_Dubbed_Movie_.mp4.html”><strong>UpPom Link</strong></a></span></h2>
<h2 style=”text-align: center”><span style=”color: #00ff00″><a style=”color: #00ff00″ href=”https://uploadbuzz.org/6i2sim10cpet”><strong>UploadBuzz Link</strong></a></span></h2>
<p style=”text-align: center”><img class=”aligncenter” src=”https://inteha2018.files.wordpress.com/2018/05/1gb.png” width=”183″ height=”183″ /></p>
<p style=”text-align: center”><img class=”aligncenter” src=”https://i.ibb.co/f9L2rpJ/giphy.gif” /></p>

Comments

You may also like