Predators BluRay Dual Audio Movie 720p

May 17, 2019

Predators BluRay Dual Audio Movie 720p.mp4

IMDB Link

General
Complete name : Predators BluRay Dual Audio Movie.mp4
Format : MPEG-4
Format profile : Base Media / Version 2
Codec ID : mp42 (mp42)
File size : 660 MiB
Duration : 2 h 10 min
Overall bit rate mode : Constant
Overall bit rate : 709 kb/s
Codirector : codirector
Production studio : studio

Video
Format : MPEG-4 Visual
Format settings, BVOP : Yes
Format settings, QPel : No
Format settings, GMC : No warppoints
Format settings, Matrix : Default (H.263)
Codec ID : 20
Duration : 2 h 10 min
Bit rate mode : Constant
Bit rate : 512 kb/s
Width : 720 pixels
Height : 302 pixels
Display aspect ratio : 2.40:1
Frame rate mode : Constant
Frame rate : 30.000 FPS
Color space : YUV
Bit depth : 8 bits
Scan type : Progressive
Compression mode : Lossy
Bits/(Pixel*Frame) : 0.078
Stream size : 476 MiB (72%)

Audio
Format : AAC
Format/Info : Advanced Audio Codec
Format profile : LC
Codec ID : 40
Duration : 2 h 10 min
Bit rate mode : Constant
Bit rate : 192 kb/s
Channel(s) : 2 channels
Channel positions : Front: L R
Sampling rate : 44.1 kHz
Frame rate : 43.066 FPS (1024 SPF)
Compression mode : Lossy
Stream size : 179 MiB (27%)
Title : Stereo
Language : English








indishare Link

TheFilesLocker Link

MegaUp Link

OpenLoad Link

UserscLoud Link

ClicknupLoad Link

BDupload Link

UpPom Link

UploadBuzz Link

The post Predators BluRay Dual Audio Movie 720p appeared first on GaanBD24.pw | 7starhd,khatrimaza,downloadhub,9xmovies,khatrimaza,bdmusic23,bdmusic23.com,bdmusic23.pro,bdmusic23.info,bdmusic23.mobi,bdmusic,bd music.

Source:

Comments

You may also like