Raw Khiladi Hindi Dubbed Movie 720p

April 15, 2019

Raw Khiladi Hindi Dubbed Movie 720p.mkv

IMDB Link

General
Complete name : Raw Khiladi Hindi Dubbed Movie.mp4
Format : MPEG-4
Format profile : Base Media / Version 2
Codec ID : mp42 (mp42)
File size : 682 MiB
Duration : 2 h 16 min
Overall bit rate mode : Constant
Overall bit rate : 699 kb/s
Codirector : codirector
Production studio : studio

Video
Format : MPEG-4 Visual
Format settings, BVOP : Yes
Format settings, QPel : No
Format settings, GMC : No warppoints
Format settings, Matrix : Default (H.263)
Codec ID : 20
Duration : 2 h 16 min
Bit rate mode : Constant
Bit rate : 511 kb/s
Width : 640 pixels
Height : 360 pixels
Display aspect ratio : 16:9
Frame rate mode : Constant
Frame rate : 25.000 FPS
Color space : YUV
Bit depth : 8 bits
Scan type : Progressive
Compression mode : Lossy
Bits/(Pixel*Frame) : 0.089
Stream size : 499 MiB (73%)

Audio
Format : AAC
Format/Info : Advanced Audio Codec
Format profile : LC
Codec ID : 40
Duration : 2 h 16 min
Bit rate mode : Constant
Bit rate : 182 kb/s
Channel(s) : 2 channels
Channel positions : Front: L R
Sampling rate : 48.0 kHz
Frame rate : 46.875 FPS (1024 SPF)
Compression mode : Lossy
Stream size : 177 MiB (26%)
Title : Stereo
Language : English
Default : Yes








indishare Link

TheFilesLocker Link

MegaUp Link

OpenLoad Link

UserscLoud Link

ClicknupLoad Link

BDupload Link

UpPom Link

UploadBuzz Link

Comments

You may also like