Tor Karone Beche Achi (2014) Bangladeshi Movie 720p

May 26, 2019

Tor Karone Beche Achi (2014) Bangladeshi Movie 720p.mp4

General
Complete name : Tor Karone Beche Achi (2014) Bangladeshi Movie.mp4
Format : MPEG-4
Format profile : Base Media / Version 2
Codec ID : mp42 (mp42)
File size : 843 MiB
Duration : 3 h 0 min
Overall bit rate mode : Constant
Overall bit rate : 654 kb/s
Codirector : codirector
Production studio : studio
ContentType : Unknown Type

Video
Format : MPEG-4 Visual
Format settings, BVOP : Yes
Format settings, QPel : No
Format settings, GMC : No warppoints
Format settings, Matrix : Default (H.263)
Codec ID : 20
Duration : 3 h 0 min
Bit rate mode : Constant
Bit rate : 512 kb/s
Width : 700 pixels
Height : 410 pixels
Display aspect ratio : 1.707
Frame rate mode : Constant
Frame rate : 25.000 FPS
Color space : YUV
Bit depth : 8 bits
Scan type : Progressive
Compression mode : Lossy
Bits/(Pixel*Frame) : 0.071
Stream size : 660 MiB (78%)

Audio
Format : AAC
Format/Info : Advanced Audio Codec
Format profile : LC
Codec ID : 40
Duration : 3 h 0 min
Bit rate mode : Constant
Bit rate : 137 kb/s
Channel(s) : 2 channels
Channel positions : Front: L R
Sampling rate : 44.1 kHz
Frame rate : 43.066 FPS (1024 SPF)
Compression mode : Lossy
Stream size : 177 MiB (21%)
Title : Stereo
Language : English








indishare Link

TheFilesLocker Link

OpenLoad Link

UserscLoud Link

ClicknupLoad Link

BDupload Link

UpPom Link

UploadBuzz Link

The post Tor Karone Beche Achi (2014) Bangladeshi Movie 720p appeared first on GaanBD24.pw | 7starhd,khatrimaza,downloadhub,9xmovies,khatrimaza,bdmusic23,bdmusic23.com,bdmusic23.pro,bdmusic23.info,bdmusic23.mobi,bdmusic,bd music.

Source:

Comments

You may also like