Zoombies (2016) Hindi Dubbed Movie 720p

May 20, 2019

Zoombies (2016) Hindi Dubbed Movie 720p.mp4

IMDB Link

General
Complete name : Zoombies (2016) Hindi Dubbed Movie.mp4
Format : MPEG-4
Format profile : Base Media / Version 2
Codec ID : mp42 (mp42)
File size : 534 MiB
Duration : 1 h 50 min
Overall bit rate mode : Constant
Overall bit rate : 676 kb/s
Codirector : codirector
Production studio : studio

Video
Format : MPEG-4 Visual
Format settings, BVOP : Yes
Format settings, QPel : No
Format settings, GMC : No warppoints
Format settings, Matrix : Default (H.263)
Codec ID : 20
Duration : 1 h 50 min
Bit rate mode : Constant
Bit rate : 512 kb/s
Width : 720 pixels
Height : 350 pixels
Display aspect ratio : 2.057
Frame rate mode : Constant
Frame rate : 25.000 FPS
Color space : YUV
Bit depth : 8 bits
Scan type : Progressive
Compression mode : Lossy
Bits/(Pixel*Frame) : 0.081
Stream size : 405 MiB (76%)

Audio
Format : AAC
Format/Info : Advanced Audio Codec
Format profile : LC
Codec ID : 40
Duration : 1 h 50 min
Bit rate mode : Constant
Bit rate : 159 kb/s
Channel(s) : 2 channels
Channel positions : Front: L R
Sampling rate : 44.1 kHz
Frame rate : 43.066 FPS (1024 SPF)
Compression mode : Lossy
Stream size : 126 MiB (24%)
Title : Stereo
Language : English








indishare Link

TheFilesLocker Link

MegaUp Link

OpenLoad Link

UserscLoud Link

ClicknupLoad Link

BDupload Link

UpPom Link

UploadBuzz Link

The post Zoombies (2016) Hindi Dubbed Movie 720p appeared first on GaanBD24.pw | 7starhd,khatrimaza,downloadhub,9xmovies,khatrimaza,bdmusic23,bdmusic23.com,bdmusic23.pro,bdmusic23.info,bdmusic23.mobi,bdmusic,bd music.

Source:

Comments

You may also like